#TITLE:Todeswalzer;
#SUBTITLE:by young_editer@hotmail.com;
#ARTIST:Windir;
#TITLETRANSLIT:;
#SUBTITLETRANSLIT:;
#ARTISTTRANSLIT:;
#CREDIT:;
#BANNER:windir . noruega-bn.gif;
#BACKGROUND:2001 - 1984-bg.jpg;
#LYRICSPATH:;
#CDTITLE:Nepex-Chart.bmp;
#MUSIC:Todeswalzer.mp3;
#OFFSET:0.340;
#SAMPLESTART:99.860;
#SAMPLELENGTH:12.000;
#SELECTABLE:YES;
#BPMS:0.000=84.000,18.000=168.000,446.000=84.000,459.000=168.000,590.000=224.140,686.000=168.000;
#STOPS:;
#BGCHANGES:;

//---------------dance-single - Viking Folk Metal----------------
#NOTES:
     dance-single:
     Viking Folk Metal:
     Hard:
     14:
     1.000,1.000,1.000,1.000,1.000:
0000
0000
0000
0000
0000
0000
0000
0000
1000
0000
0022
0033
0100
0000
2200
3300
,
0001
0000
2020
3030
0220
0330
0022
0033
0100
0001
2200
3300
2002
3003
0220
1330
,
1000
0000
0022
0033
0220
0330
2002
3003
0010
0000
2200
3300
0010
0000
0202
0303
,
1000
0000
0202
0303
0220
0330
2200
3310
1000
0001
0220
0330
2002
3003
0022
0133
,
0100
0000
0220
0330
2002
3003
0202
0313
0010
0001
0100
0010
0100
0010
0100
0010
,
1000
0100
1000
0001
0100
0001
0100
0001
0100
0010
0100
0010
1000
0100
0010
0100
,
1000
0001
0100
0010
0100
0010
1000
0100
0010
0001
0100
0010
0001
0010
0100
0001
,
0010
0100
1000
0100
0010
0100
1000
0001
0100
0010
1000
0001
0100
0001
1000
0100
,
0010
0100
0001
0100
1000
0100
0001
0100
1000
0100
0001
0100
1000
0100
0010
0001
,
0010
1000
0010
0001
0010
0100
0001
0100
0010
0001
0100
0010
0100
1000
0100
0010
,
0100
1000
0100
0010
0001
0010
1000
0100
0010
0001
0100
0010
1000
0100
0010
0100
,
0010
0001
0100
0001
1000
0100
0010
0100
1000
0100
0010
0001
0010
0100
1000
0011
,
1100
0010
0001
0100
0001
0100
1010
0011
1020
0001
2030
0100
3020
0001
2030
0100
,
3002
0100
0023
0001
2030
0100
3020
0100
2030
0001
3200
0010
0302
0010
2003
0100
,
3020
0001
0230
0010
0302
0010
2003
0100
3020
0100
0032
0100
2003
0001
3200
0001
,
0320
0001
0230
0010
2300
0010
3200
0010
0302
0010
0203
0010
2300
0010
3200
0010
,
0302
0010
1003
0010
0100
0001
0010
0001
0200
0001
2300
0001
3200
0001
0320
0001
,
2030
0001
3200
0001
0320
0001
0230
0010
2300
0010
3200
0001
0320
0001
2030
0100
,
3020
0001
0230
0010
0302
0010
2003
0100
3020
0100
2030
0001
3200
0001
0320
0001
,
0230
0001
0320
0100
2030
0010
3200
0010
2300
0001
3200
0010
0302
0010
0203
0010
,
2300
0100
3020
0001
0230
0001
2300
0001
3200
0001
2300
0100
3020
0100
2030
0001
,
3020
0100
2030
0001
3020
0100
2030
0100
3020
0100
2030
0100
3020
0100
0032
0100
,
0023
0001
2030
0001
3020
0100
2030
0001
3020
0100
2030
0001
3020
0001
0230
0001
,
2300
0001
3200
0001
0320
0001
2030
0100
3020
0100
0032
0100
0023
0001
0230
0001
,
0320
0100
1030
0010
0100
0010
1000
0001
0200
0010
0302
0010
2003
0010
3200
0001
,
0320
0001
2030
0100
3020
0001
0230
0010
2300
0001
3020
0001
0230
0001
2300
0010
,
3200
0010
2300
0001
3200
0001
0320
0100
2030
0100
3020
0100
2030
0001
3020
0100
,
2030
0001
3020
0100
2030
0100
3020
0001
2030
0010
3002
1000
0203
0001
0320
0001
,
0230
0001
2300
0100
3002
0100
2003
0001
3220
0000
0000
0000
1331
0000
0000
0000
,
0010
1000
0101
0000
0010
0000
1100
0000
,
0001
0000
0100
0000
1010
0000
0001
0001
0001
0000
0000
0000
2020
0000
0000
0000
,
3130
1000
0011
0000
0001
0000
1010
0000
,
0100
0000
0000
0000
0000
0000
0000
0000
0010
0000
0000
0000
0000
0000
0000
0000
2200
0000
0000
0000
0000
0000
0000
0000
0000
0000
0000
0000
0000
0000
0000
3000
2302
0000
0000
0000
0000
0000
0000
0000
0000
0000
0000
0000
0000
0000
0000
0000
3113
0000
0000
0000
0000
0000
0000
0000
0000
0000
0000
0000
0000
0000
0000
0000
,
0001
0100
0011
0000
1000
0000
0101
0000
,
1000
0001
1010
0000
0001
0000
2020
0000
,
3130
0001
0110
0000
0010
0000
0011
0000
,
0100
0000
0000
0000
0000
0000
0000
0000
0010
0000
0000
0000
0000
0000
0000
0000
2200
0000
0000
0000
0000
0000
0000
0000
0000
0000
0000
0000
0000
0000
0000
0300
3202
0000
0000
0000
1000
0000
0000
0000
0010
0000
0000
0000
1000
0000
0000
0000
0313
0000
0000
0000
0100
0000
0000
0000
0001
0000
0000
0000
1000
0000
0000
0000
,
0010
0100
0001
1000
0001
0100
0010
1000
0001
0010
0100
0010
0001
0100
0001
0100
,
0010
0001
0010
0100
1000
0100
0010
0001
0010
0100
1000
0010
0100
0001
1000
0010
,
0100
0010
1000
0001
0100
0010
1000
0001
0100
0001
0100
0001
1000
0010
0100
0010
,
1000
0010
0100
0010
1000
0001
0010
0100
0020
0001
2030
0100
3020
0001
2030
0100
,
3002
0100
0023
0001
2030
0100
3020
0100
2030
0001
3200
0010
0302
0010
2003
0100
,
3020
0001
0230
0010
0302
0010
2003
0100
3020
0100
0032
0100
2003
0001
3200
0001
,
0320
0001
0230
0010
2300
0010
3200
0010
0302
0010
0203
0010
2300
0010
3200
0010
,
0302
0010
1003
0010
0100
0001
0010
0001
0200
0001
2300
0001
3200
0001
0320
0001
,
2030
0001
3200
0001
0320
0001
0230
0010
2300
0010
3200
0001
0320
0001
2030
0100
,
3020
0001
0230
0010
0302
0010
2003
0100
3020
0100
2030
0001
3200
0001
0320
0001
,
0230
0001
0320
0100
2030
0010
3200
0010
2300
0001
3200
0010
0302
0010
0203
0010
,
2300
0100
3020
0001
0230
0001
2300
0001
3200
0001
2300
0100
3020
0100
2030
0001
,
3020
0100
2030
0001
3020
0100
2030
0100
3020
0100
2030
0100
3020
0100
0032
0100
,
0023
0001
2030
0001
3020
0100
2030
0001
3020
0100
2030
0001
3020
0001
0230
0001
,
2300
0001
3200
0001
0320
0001
2030
0100
3020
0100
0032
0100
0023
0001
0230
0001
,
0320
0100
1030
0010
0100
0010
1000
0001
0200
0010
0302
0010
2003
0010
3200
0001
,
0320
0001
2030
0100
3020
0001
0230
0010
2300
0001
3020
0001
0230
0001
2300
0010
,
3200
0010
2300
0001
3200
0001
0320
0100
2030
0100
3020
0100
2030
0001
3020
0100
,
2030
0001
3020
0100
2030
0100
3020
0001
2030
0010
3002
1000
0203
0001
0320
0001
,
0231
0011
2301
0100
3002
0100
2003
0001
3020
0001
2030
0100
3020
0001
2030
0100
,
3002
0100
0023
0001
2030
0100
3020
0100
2030
0001
3200
0010
0302
0010
2003
0100
,
3020
0001
0230
0010
0302
0010
2003
0100
3020
0100
0032
0100
2003
0001
3200
0001
,
0320
0001
0230
0010
2300
0010
3200
0010
0302
0010
0203
0010
2300
0010
3200
0010
,
0302
0010
1003
0010
0100
0001
0010
0001
0200
0001
2300
0001
3200
0001
0320
0001
,
2030
0001
3200
0001
0320
0001
0230
0010
2300
0010
3200
0001
0320
0001
2030
0100
,
3020
0001
0230
0010
0302
0010
2003
0100
3020
0100
2030
0001
3200
0001
0320
0001
,
0230
0001
0320
0100
2030
0010
3201
0011
2310
0001
3200
0010
0302
0010
0203
0010
,
2300
0100
3020
0001
0230
0001
2300
0001
3220
0000
0000
0000
1330
1000
1000
1000
,
0100
0100
0100
0100
0100
0000
0000
0000
0001
0001
0001
0001
0010
0010
0010
0010
,
0100
0100
0100
0100
1000
1000
1000
1000
1000
0000
0000
0000
0010
0010
0010
0010
,
0100
0100
0100
0100
0100
0000
0000
0000
0010
0010
0010
0010
0100
0100
0100
0100
,
1000
1000
1000
1000
0010
0010
0010
0010
2002
0100
0010
0100
3013
0100
0001
0100
,
0001
0010
0100
0010
0001
1000
0100
0010
0100
0010
0001
0100
0010
0100
0010
0001
,
0010
0100
0010
0100
0010
0001
0010
0100
0010
1000
0100
1000
0100
1000
0100
1000
,
0001
1000
0100
1000
0001
0100
0010
0100
0001
0010
0100
0010
0001
1000
0100
0010
,
0001
0100
0010
0001
0100
0010
0001
0010
0100
0000
0000
0000
1000
1000
1000
1000
,
0100
0100
0100
0100
0100
0000
0000
0000
0001
0001
0001
0001
0010
0010
0010
0010
,
0100
0100
0100
0100
1000
1000
1000
1000
1000
0000
0000
0000
0010
0010
0010
0010
,
0100
0100
0100
0100
0100
0000
0000
0000
0010
0010
0010
0010
0100
0100
0100
0100
,
1000
1000
1000
1000
0001
0001
0001
0001
0001
0000
0000
0000
1000
1000
1000
1000
,
0100
0100
0100
0100
0100
0000
0000
0000
0100
0100
0100
0100
0010
0010
0010
0010
,
1000
1000
1000
1000
0100
0100
0100
0100
0100
0000
0000
0000
0001
0001
0001
0001
,
0010
0010
0010
0010
0010
0000
0000
0000
0100
0100
0100
0100
0010
0010
0010
0010
,
0001
0001
0001
0001
0010
0010
0010
0010
0010
0000
0000
0000
1000
1000
1000
1000
,
0100
0100
0100
0100
0100
0000
0000
0000
0001
0001
0001
0001
0010
0010
0010
0010
,
0100
0100
0100
0100
1000
1000
1000
1000
1000
0000
0000
0000
0010
0010
0010
0010
,
0100
0100
0100
0100
0100
0000
0000
0000
0010
0010
0010
0010
0100
0100
0100
0100
,
1000
1000
1000
1000
0001
0001
0001
0001
0001
0000
0000
0000
1000
1000
1000
1000
,
0100
0100
0100
0100
0100
0000
0000
0000
0100
0100
0100
0100
0010
0010
0010
0010
,
1000
1000
1000
1000
0100
0100
0100
0100
0100
0000
0000
0000
0001
0001
0001
0001
,
0010
0010
0010
0010
0010
0000
0000
0000
0100
0100
0100
0100
0010
0010
0010
0010
,
0001
0001
0001
0001
0010
0010
0010
0010
0010
0000
0000
0000
1000
1000
1000
1000
,
0100
0100
0100
0100
0100
0000
0000
0000
0001
0001
0001
0001
0010
0010
0010
0010
,
0100
0100
0100
0100
1000
1000
1000
1000
1000
0000
0000
0000
0010
0010
0010
0010
,
0100
0100
0100
0100
0100
0000
0000
0000
0010
0010
0010
0010
0100
0100
0100
0100
,
1000
1000
1000
1000
0001
0001
0001
0001
0001
0000
0000
0000
1000
1000
1000
1000
,
0100
0100
0100
0100
0100
0000
0000
0000
0100
0100
0100
0100
0010
0010
0010
0010
,
1000
1000
1000
1000
0100
0100
0100
0100
0100
0000
0000
0000
0001
0001
0001
0001
,
0010
0010
0010
0010
0010
0000
0000
0000
0100
0100
0100
0100
0010
0010
0010
0010
,
0001
0001
0001
0001
0010
0010
0010
0010
0110
0000
0001
0001
0001
0000
0101
0000
,
1010
0000
1001
0000
1100
0000
0100
0100
0100
0000
0011
0000
1100
0000
0110
0000
,
1001
0000
0100
0100
0100
0000
0011
0000
0101
0000
0110
0000
1010
0000
1000
1000
,
1000
0000
0101
0000
0011
0000
1100
0000
0101
0000
0001
0001
0001
0000
1100
0000
,
1010
0000
1001
0000
0110
0000
0010
0010
0010
0000
0101
0000
1100
0000
1010
0000
,
1001
0000
0100
0100
0100
0000
1100
0000
0011
0000
0110
0000
1001
0000
1000
1000
,
1000
0000
0101
0000
0011
0000
1100
0000
0101
0000
0100
0100
0100
0000
1100
0000
,
1010
0000
1001
0000
0110
0000
0010
0010
0010
0000
1001
0000
1100
0000
0110
0000
,
0011
0000
1000
1000
1000
0000
0011
0000
1001
0000
0110
0000
1010
0000
0010
0010
,
0010
0000
1010
0000
1001
0000
0110
0000
0011
0000
0100
0100
0100
0000
1001
0000
,
0110
0000
1010
0000
0011
0000
0100
0100
0100
0000
1010
0000
0110
0000
0011
0000
,
1010
0000
0100
0100
0100
0000
1010
0000
0011
0000
0101
0000
1010
0000
0100
0100
,
0100
0000
0110
0000
1100
0000
0011
0000
1010
0000
0001
0001
0001
0000
1010
0000
,
0101
0000
1001
0000
0110
0000
1000
1000
1000
0000
0101
0000
0011
0000
1100
0000
,
1010
0000
0001
0001
0001
0000
1100
0000
0011
0000
1010
0000
0101
0000
0100
0100
,
0100
0000
0110
0000
1010
0000
0101
0000
1010
0000
0202
0303
0001
0000
2200
3300
,
0010
0000
2002
3003
0022
0033
0202
0303
0010
0001
2200
3300
2002
3003
2020
3031
,
0001
0000
2200
3300
0220
0330
0202
0303
0001
0000
0010
0001
2002
3013
2200
3301
,
0010
0010
2002
3103
0022
0133
1000
0001
0220
0331
2020
3130
0001
1000
0001
1000
,
0010
0100
0010
0100
0001
1000
0001
1000
0110
0001
0100
0001
0100
0010
0100
0010
,
1000
0100
0010
0100
0010
0001
0100
0001
0010
0100
0010
0001
0100
0010
0100
0010
,
1000
0100
1000
0001
0100
0001
1000
0100
1000
0001
0100
0001
1000
0100
1000
0001
,
0010
0001
1000
0100
1000
0001
0010
0001
1000
0010
1000
0010
0100
0010
1000
0010
,
1000
0010
0100
0010
1000
0100
0010
0100
1000
0001
0100
0001
0100
0001
1000
0100
,
1000
0001
1000
0100
1000
0001
1000
0100
1000
0010
0100
0010
0001
0010
0100
0010
,
0100
0010
1000
0100
0010
0100
0010
0001
0100
0001
0100
0001
0010
0001
1000
0100
,
1000
0001
0100
0010
0100
0010
1000
0100
0010
0100
0010
0001
1000
0100
0010
0001
,
0100
0010
0100
0010
1000
0100
0010
0100
0010
0001
0100
0001
0100
0010
1000
0100
,
0010
0001
0100
0010
1000
0100
1000
0010
1000
0001
0100
0001
0010
0100
0010
0001
,
0010
0001
0100
0010
1000
0100
1000
0001
0100
0010
1000
0100
0010
0001
0100
0010
,
0100
0010
1000
0001
0100
0001
0010
0001
1000
0100
0010
0001
1000
0100
0010
0001
,
0010
0100
1000
0001
0010
0100
1000
0100
0010
0001
1000
0100
0010
0001
0010
0100
,
1000
0001
0010
0100
1000
0100
0010
0001
0010
0100
1000
0100
0010
0001
0100
0001
,
0100
0001
0010
0100
0001
0010
0100
0001
1000
0100
0010
0001
0100
0010
0001
1000
,
0100
0010
0001
1000
0100
0010
0001
0010
0100
1000
0100
0010
1000
0100
0010
0001
,
1000
0100
0010
0001
0100
0001
0100
0001
0010
0001
0100
0001
0010
0001
0100
0001
,
1000
0100
1000
0010
0001
0010
1000
0010
0001
0010
1000
0010
0001
0010
1000
0010
,
0001
0010
0100
0001
0100
1000
0100
0001
0100
1000
0100
0010
0100
1000
0100
0010
,
1000
0010
0100
0010
1000
0010
0001
0010
0100
0001
0100
0001
0010
0001
1000
0100
,
1000
0001
0100
0010
1000
0100
0010
0001
0010
0100
1000
0100
1000
0001
0100
0001
,
0100
0010
0100
0010
1000
0001
0100
0001
1000
0100
1000
0001
0100
0010
0001
0010
,
0100
0010
1000
0010
0100
0010
1000
0100
0010
0001
0100
0001
0010
0100
1000
0010
,
1000
0001
0100
0001
1000
0100
0010
0001
0100
0001
0010
0001
1000
0100
1000
0010
,
0100
0010
1000
0100
0010
0100
1000
0001
0100
0000
0000
0000
1000
1000
1000
1000
,
0100
0100
0100
0100
0100
0000
0000
0000
0001
0001
0001
0001
0010
0010
0010
0010
,
0100
0100
0100
0100
1000
1000
1000
1000
1000
0000
0000
0000
0010
0010
0010
0010
,
0100
0100
0100
0100
0100
0000
0000
0000
0010
0010
0010
0010
0100
0100
0100
0100
,
1000
1000
1000
1000
0001
0001
0001
0001
0001
0000
0000
0000
1000
1000
1000
1000
,
0100
0100
0100
0100
0100
0000
0000
0000
0100
0100
0100
0100
0010
0010
0010
0010
,
1000
1000
1000
1000
0100
0100
0100
0100
0100
0000
0000
0000
0001
0001
0001
0001
,
0010
0010
0010
0010
0010
0000
0000
0000
0100
0100
0100
0100
0010
0010
0010
0010
,
0001
0000
0000
0001
0000
0000
0001
0000
0000
0001
0000
0000
0010
0000
0000
0010
0000
0000
0010
0000
0000
0010
0000
0000
0010
0000
0000
0000
1000
0000
0000
0000
0010
0000
0000
0000
0100
0000
0000
0000
0010
0000
0000
0000
1000
0000
0000
0000
,
0100
0010
0001
0100
0001
0100
0010
0100
0010
1000
0010
0100
,
0010
1000
0100
0010
0001
0100
0001
0010
0100
1000
0001
0100
,
0010
1000
0010
0100
0001
0010
1000
0010
0001
0100
0010
0100
,
0010
1000
0010
0100
0001
0100
0010
1000
0100
0010
0001
0010
,
0100
0010
0001
0010
0100
1000
0100
0010
0001
0010
0100
1000
,
0100
0010
0100
1000
0100
0010
0001
0010
0100
0010
0001
0010
,
0100
1000
0100
0010
0100
1000
0100
0010
0001
0010
0100
0010
,
0001
0010
0100
1000
0100
0010
0100
1000
0100
0010
0001
0010
,
0001
0100
0001
0100
0010
0100
1000
0100
0010
1000
0100
0010
,
0001
0100
0001
0010
0100
0010
0001
1000
0100
0010
0100
1000
,
0001
0100
0010
0100
0010
1000
0010
0100
0010
1000
0100
0010
,
0001
0100
0001
0010
0100
0010
1000
0010
0001
0100
0001
1000
,
0100
1000
0010
0100
0010
1000
0001
0100
0001
0010
0001
0100
,
0001
1000
0100
1000
0010
0100
0010
1000
0010
0100
0010
0001
,
0010
0100
0010
1000
0100
0010
0100
0010
0001
0100
0001
1000
,
0100
0010
0100
1000
0010
0100
0010
1000
0010
0100
0010
1000
,
0100
0010
0100
1000
0010
0100
0010
1000
0100
0010
0001
0100
,
0010
0100
0001
0010
0100
0010
0001
0100
0001
0010
0001
0100
,
0010
0100
0001
0010
0100
0010
0001
0100
0010
0100
0001
0010
,
0100
1000
0100
0010
0100
1000
0100
0010
0100
1000
0010
0100
,
1000
0100
0010
1000
0100
0010
0100
1000
0010
0100
1000
0100
,
0010
1000
0100
0010
0001
0010
0100
0010
0001
0100
0010
0001
,
0010
0100
0001
0010
0100
0010
0001
0100
0001
1000
0100
0010
,
0100
0000
0000
0000
0010
0000
0000
0000
0100
0000
0000
0000
0010
0000
0000
0000
1000
0000
0000
0000
0010
0000
0000
0000
0000
0000
0000
0101
0000
0000
0000
0000
0000
0011
0000
0000
0000
0000
0000
1001
0000
0000
0000
0000
0000
1100
0000
0000
,
0000
0110
0000
0101
0000
1010
0000
0110
0000
1001
0000
0101
0000
0011
0000
1100
,
0000
0110
0000
1010
0000
0101
0000
0011
0000
1001
0000
1100
0000
0110
0000
1010
,
0000
0101
0000
0011
0000
1001
0000
1100
0000
0110
0000
1010
0000
0101
0000
0011
,
0000
1001
0000
1100
0000
0110
0000
0101
0000
0011
0000
1100
0000
0110
0000
0011
,
0000
0110
0000
1001
0000
1100
0000
1001
0000
0101
0000
0011
0000
0110
0000
1001
,
0000
1010
0000
1100
0000
0101
0000
0011
0000
1001
0000
0101
0000
0011
0000
0101
,
0000
1100
0000
1010
0000
0110
0000
1001
0000
0110
0000
0101
0000
0011
0000
1001
,
0000
1100
0000
0110
0000
1001
0000
1100
0000
1010
0000
0101
0000
0011
0000
1001
,
0000
1100
0000
0101
0000
0011
0000
1001
0000
1010
0000
0110
0000
1010
0000
0101
,
0000
0011
0000
1001
0000
1010
0000
0110
0000
0101
0000
0011
0000
1001
0000
1100
,
0000
0110
0000
1001
0000
0101
0000
0011
0000
1001
0000
1100
0000
1010
0000
1100
,
0000
1001
0000
0101
0000
1001
0000
1010
0000
0101
0000
0011
0000
1100
0000
0101
,
0000
0011
0000
1001
0000
1010
0000
0110
0000
0101
0000
0011
0000
1001
0000
1010
,
0000
0101
0000
1010
0000
0110
0000
0101
0000
0011
0000
1001
0000
1010
0000
0110
,
0000
1010
0000
0101
0000
0011
0000
1001
0010
0100
0010
0000
0000
0000
0000
0000
,
0100
0000
0000
0000
0001
0100
0010
0100
0010
1000
0000
0101
0000
0011
0000
1001
,
0000
1100
0000
0110
0000
1010
0000
0101
0000
0011
0000
1001
0000
1100
0000
1010
,
0000
0110
0000
1010
0000
0101
0000
0011
0000
1001
0000
1100
0000
1010
0000
0101
,
0000
0011
0000
1001
0000
0110
0000
1100
0000
0101
0000
0011
0000
1001
0000
1100
,
0000
0011
0000
0101
0000
0011
0000
1001
0000
1100
0000
1010
0000
0110
0000
1001
,
0000
0101
0000
0011
0000
1001
0000
1100
0000
1010
0000
0110
0000
1001
0000
0101
,
0000
0011
0000
1001
0000
1100
0000
0110
0000
1010
0000
0101
0000
0011
0000
1001
,
0000
1100
0000
0110
0000
1010
0000
0101
0000
0011
0000
1001
0000
0101
0000
0011
,
0000
1001
0000
1100
0000
0110
0000
1010
0000
0101
0000
0011
0000
0101
0000
1010
,
0000
0101
0000
1001
0000
0101
0000
0011
0000
1001
0000
1100
0000
0110
0000
0101
,
0000
1001
0000
1100
0000
0110
0000
0101
0000
0110
0000
1100
0000
0101
0000
1010
,
0000
0110
0000
0101
0000
1001
0000
0101
0000
0011
0000
1001
0000
0110
0000
1010
,
0000
0110
0000
0101
0000
1001
0000
1100
0000
0110
0000
1010
0000
0101
0000
0011
,
0000
1001
0000
0110
0000
0101
0000
0022
0000
0000
0000
0000
0000
0000
0000
0000
,
0000
0000
0000
0000
,
0000
0000
0033
0000
;

//---------------dance-single - Copied from Viking F----------------
#NOTES:
     dance-single:
     Copied from Viking F:
     Challenge:
     15:
     1.000,1.000,1.000,1.000,1.000:
0000
0000
0000
0000
0000
0000
0000
0000
1100
0000
0022
0033
0110
0000
2200
3300
,
0011
0000
2020
3030
0220
0330
0022
0033
0110
0011
2200
3300
2002
3003
0220
1331
,
0101
0000
0022
0033
0220
0330
2002
3003
0110
0000
2200
3300
0011
0000
0202
0303
,
1010
0000
0202
0303
0220
0330
2200
3311
1001
1010
0220
0330
2002
3003
0022
1133
,
0110
0000
0220
0330
2002
3003
0202
1313
0010
0001
1100
0010
0100
0010
0101
0010
,
1000
0100
1010
0001
0100
0001
1100
0001
0100
0010
1100
0010
1000
0100
0011
0100
,
1000
0001
1100
0010
0100
0010
1001
0100
0010
0001
1100
0010
0001
0010
1100
0001
,
0010
0100
1001
0100
0010
0100
1010
0001
0100
0010
1100
0001
0100
0001
1010
0100
,
0010
0100
1001
0100
1000
0100
0011
0100
1000
0100
0011
0100
1000
0100
1010
0001
,
0010
1000
0110
0001
0010
0100
1001
0100
0010
0001
1100
0010
0100
1000
0101
0010
,
0100
1000
0101
0010
0001
0010
1001
0100
0010
0001
1100
0010
1000
0100
0011
0100
,
0010
0001
0110
0001
1000
0100
0011
0100
1000
0100
1010
0001
0010
0100
1001
0011
,
1100
0010
0001
0100
0001
0100
1010
0011
1020
0001
2031
0100
3020
0001
2031
0100
,
3002
0100
1023
0001
2030
0100
3021
0100
2030
0001
3210
0010
0302
0010
2013
0100
,
3020
0001
1230
0010
0302
0010
2013
0100
3020
0100
1032
0100
2003
0001
3210
0001
,
0320
0001
1230
0010
2300
0010
3201
0010
0302
0010
1203
0010
2300
0010
3201
0010
,
0302
0010
1103
0010
0100
0001
1010
0001
0200
0001
2310
0001
3200
0001
1320
0001
,
2030
0001
3210
0001
0320
0001
1230
0010
2300
0010
3210
0001
0320
0001
2031
0100
,
3020
0001
1230
0010
0302
0010
2013
0100
3020
0100
2130
0001
3200
0001
1320
0001
,
0230
0001
1320
0100
2030
0010
3201
0010
2300
0001
3201
0010
0302
0010
1203
0010
,
2300
0100
3120
0001
0230
0001
2310
0001
3200
0001
2310
0100
3020
0100
2031
0001
,
3020
0100
2130
0001
3020
0100
2031
0100
3020
0100
2031
0100
3020
0100
1032
0100
,
0023
0001
2130
0001
3020
0100
2130
0001
3020
0100
2031
0001
3020
0001
1230
0001
,
2300
0001
3210
0001
0320
0001
2031
0100
3020
0100
1032
0100
0023
0001
1230
0001
,
0320
0100
1031
0010
0100
0010
1100
0001
0200
0010
1302
0010
2003
0010
3210
0001
,
0320
0001
2031
0100
3020
0001
1230
0010
2300
0001
3120
0001
0230
0001
2310
0010
,
3200
0010
2301
0001
3200
0001
1320
0100
2030
0100
3021
0100
2030
0001
3120
0100
,
2030
0001
3120
0001
2030
0100
3021
0100
2030
0010
3002
1000
0203
0001
0320
0001
,
0230
0001
2300
0100
3002
0100
2003
0001
3220
0000
0000
0000
1331
0000
0000
0000
,
0010
1000
0101
0000
0010
0000
1100
0000
,
0001
0000
0100
0000
1010
0000
0001
0001
0001
0000
0000
0000
2020
0000
0000
0000
,
3130
1000
0011
0000
0001
0000
1010
0000
,
0100
0000
0000
0000
0000
0000
0000
0000
0010
0000
0000
0000
0000
0000
0000
0000
2200
0000
0000
0000
0000
0000
0000
0000
0000
0000
0000
0000
0000
0000
0000
3000
2302
0000
0000
0000
0000
0000
0000
0000
0000
0000
0000
0000
0000
0000
0000
0000
3113
0000
0000
0000
0000
0000
0000
0000
0000
0000
0000
0000
0000
0000
0000
0000
,
0001
0100
0011
0000
1000
0000
0101
0000
,
1000
0001
1010
0100
0001
0000
2020
0000
,
3130
0001
0110
0000
0010
0000
0011
0000
,
0100
0000
0000
0000
0000
0000
0000
0000
0010
0000
0000
0000
0000
0000
0000
0000
2200
0000
0000
0000
0000
0000
0000
0000
0010
0000
0000
0000
0000
0000
0000
0300
3202
0000
0000
0000
1000
0000
0000
0000
0010
0000
0000
0000
1000
0000
0000
0000
1313
0000
0000
0000
0100
0000
0000
0000
0001
0000
0000
0000
1000
0000
0000
0000
,
0010
0100
0001
1000
0011
0100
0010
1000
0001
0010
0100
0010
1001
0100
0001
0100
,
0010
0001
0010
0100
1001
0100
0010
0001
0010
0100
1000
0010
1100
0001
1000
0010
,
0100
0010
1000
0001
1100
0010
1000
0001
0100
0001
0100
0001
1100
0010
0100
0010
,
1000
0010
0101
0010
2200
0000
0000
0000
3320
0001
2031
0100
3020
0001
2130
0100
,
3002
0100
1023
0001
2030
0100
3021
0100
2030
0001
3210
0010
0302
0010
2013
0100
,
3020
0001
1230
0010
0302
0010
2013
0100
3020
0100
1032
0100
2003
0001
3210
0001
,
0320
0001
1230
0010
2300
0010
3201
0010
0302
0010
1203
0010
2300
0010
3201
0010
,
0302
0010
1103
0010
0100
0001
0110
0001
0200
0001
2310
0001
3200
0001
1320
0001
,
2030
0001
3210
0001
0320
0001
1230
0010
2300
0010
3210
0001
0320
0001
2031
0100
,
3020
0001
1230
0010
0302
0010
2013
0100
3020
0100
2031
0001
3200
0001
1320
0001
,
0230
0001
1320
0100
2030
0010
3201
0010
2300
0001
3201
0010
0302
0010
1203
0010
,
2300
0001
3120
0001
0230
0001
2310
0001
3200
0001
2310
0100
3020
0100
2130
0001
,
3020
0100
2031
0001
3020
0100
2031
0100
3020
0100
2031
0100
3020
0100
1032
0100
,
0023
0001
2130
0001
3020
0100
2031
0001
3020
0100
2031
0001
3020
0001
1230
0001
,
2300
0001
3210
0001
0320
0001
2031
0100
3020
0100
1032
0100
0023
0001
1230
0001
,
0320
0100
1031
0010
0100
0010
1100
0001
0200
0010
1302
0010
2003
0010
3210
0001
,
0320
0001
2031
0100
3020
0001
1230
0010
2300
0001
3120
0001
0230
0001
2310
0010
,
3200
0010
2310
0001
3200
0001
1320
0100
2030
0100
3021
0100
2030
0001
3021
0100
,
2030
0001
3021
0100
2030
0100
3120
0001
2030
0010
3102
1000
0203
0001
1320
0001
,
0230
0011
2301
0110
3002
0100
2003
0001
3020
0001
2130
0100
3020
0001
2031
0100
,
3002
0100
1023
0001
2030
0100
3021
0100
2030
0001
3201
0010
0302
0010
2013
0100
,
3020
0001
1230
0010
0302
0010
2013
0100
3020
0100
1032
0100
2003
0001
3210
0001
,
0320
0001
1230
0010
2300
0010
3201
0010
0302
0010
1203
0010
2300
0010
3201
0010
,
0302
0010
1103
0010
0100
0001
1010
0001
0200
0001
2310
0001
3200
0001
1320
0001
,
2030
0001
3210
0001
0320
0001
1230
0010
2300
0010
3210
0001
0320
0001
2031
0100
,
3020
0001
1230
0010
0302
0010
2013
0100
3020
0100
2031
0001
3200
0001
1320
0001
,
0230
0001
1320
0100
2030
0010
3200
0011
2310
0001
3200
0010
0302
0010
0203
0010
,
2300
0100
3020
0001
0230
0001
2300
0001
3220
0000
0000
0000
1331
1000
1000
1000
,
0100
0100
0100
0100
0110
0000
0000
0000
0001
0001
0001
0001
1010
0010
0010
0010
,
0100
0100
0100
0100
1001
1000
1000
1000
1000
0000
0000
0000
0110
0010
0010
0010
,
0100
0100
0100
0100
1100
0000
0000
0000
0010
0010
0010
0010
0101
0100
0100
0100
,
1000
0000
0000
0000
1000
0000
0000
0000
1000
0000
0000
0000
1000
0000
0000
0000
0110
0000
0000
0000
0010
0000
0000
0000
0010
0000
0000
0000
0010
0000
0000
0000
2002
0000
0000
0000
0100
0000
0000
0000
0010
0000
0000
0000
0100
0000
0000
3000
1013
0000
0000
0000
0100
0000
0000
0000
0001
0000
0000
0000
0100
0000
0000
0000
,
0001
0010
0100
0010
0101
1000
0100
0010
0100
0010
0001
0100
1010
0100
0010
0001
,
0010
0100
0010
0100
1010
0001
0010
0100
0010
1000
0100
1000
0101
1000
0100
1000
,
0001
1000
0100
1000
0011
0100
0010
0100
0001
0010
0100
0010
0101
1000
0100
0010
,
0001
0100
0010
0001
1000
0010
0001
0010
0100
0000
0000
0000
1010
1000
1000
1000
,
0100
0100
0100
0100
0110
0000
0000
0000
0001
0001
0001
0001
1010
0010
0010
0010
,
0100
0100
0100
0100
1001
1000
1000
1000
1000
0000
0000
0000
1010
0010
0010
0010
,
0100
0100
0100
0100
0101
0000
0000
0000
0010
0010
0010
0010
1100
0100
0100
0100
,
1000
1000
1000
1000
0011
0001
0001
0001
0001
0000
0000
0000
1010
1000
1000
1000
,
0100
0100
0100
0100
0101
0000
0000
0000
0100
0100
0100
0100
1010
0010
0010
0010
,
1000
1000
1000
1000
0101
0100
0100
0100
0100
0000
0000
0000
1001
0001
0001
0001
,
0010
0010
0010
0010
0110
0000
0000
0000
0100
0100
0100
0100
1010
0010
0010
0010
,
0001
0001
0001
0001
0110
0010
0010
0010
0010
0000
0000
0000
1100
1000
1000
1000
,
0100
0100
0100
0100
0110
0000
0000
0000
0001
0001
0001
0001
0110
0010
0010
0010
,
0100
0100
0100
0100
1001
1000
1000
1000
1000
0000
0000
0000
0110
0010
0010
0010
,
0100
0100
0100
0100
0101
0000
0000
0000
0010
0010
0010
0010
1100
0100
0100
0100
,
1000
1000
1000
1000
0101
0001
0001
0001
0001
0000
0000
0000
1010
1000
1000
1000
,
0100
0100
0100
0100
1100
0000
0000
0000
0100
0100
0100
0100
0011
0010
0010
0010
,
1000
1000
1000
1000
0110
0100
0100
0100
0100
0000
0000
0000
1001
0001
0001
0001
,
0010
0010
0010
0010
0110
0000
0000
0000
0100
0100
0100
0100
1010
0010
0010
0010
,
0001
0001
0001
0001
0110
0010
0010
0010
0010
0000
0000
0000
1100
1000
1000
1000
,
0100
0100
0100
0100
0110
0000
0000
0000
0001
0001
0001
0001
0110
0010
0010
0010
,
0100
0100
0100
0100
1010
1000
1000
1000
1000
0000
0000
0000
1010
0010
0010
0010
,
0100
0100
0100
0100
0101
0000
0000
0000
0010
0010
0010
0010
1100
0100
0100
0100
,
1000
1000
1000
1000
0011
0001
0001
0001
0001
0000
0000
0000
1001
1000
1000
1000
,
0100
0100
0100
0100
0110
0000
0000
0000
0100
0100
0100
0100
1010
0010
0010
0010
,
1000
1000
1000
1000
0101
0100
0100
0100
0100
0000
0000
0000
1001
0001
0001
0001
,
0010
0010
0010
0010
0110
0000
0000
0000
0100
0100
0100
0100
1010
0010
0010
0010
,
0001
0001
0001
0001
1010
0010
0010
0010
0110
0000
0001
0001
0001
0000
0101
0000
,
1010
0000
1001
0000
1100
0000
0100
0100
0100
0000
0011
0000
1100
0000
0110
0000
,
1001
0000
0100
0100
0100
0000
0011
0000
0101
0000
0110
0000
1010
0000
1000
1000
,
1000
0000
0101
0000
0011
0000
1100
0000
0101
0000
0001
0001
0001
0000
1100
0000
,
1010
0000
1001
0000
0110
0000
0010
0010
0010
0000
0101
0000
1100
0000
1010
0000
,
1001
0000
0100
0100
0100
0000
1100
0000
0011
0000
0110
0000
1001
0000
1000
1000
,
1000
0000
0101
0000
0011
0000
1100
0000
0101
0000
0100
0100
0100
0000
1100
0000
,
1010
0000
1001
0000
0110
0000
0010
0010
0010
0000
1001
0000
1100
0000
0110
0000
,
0011
0000
1000
1000
1000
0000
0011
0000
1001
0000
0110
0000
1010
0000
0010
0010
,
0010
0000
1010
0000
1001
0000
0110
0000
0011
0000
0100
0100
0100
0000
1001
0000
,
0110
0000
1010
0000
0011
0000
0100
0100
0100
0000
1010
0000
0110
0000
0011
0000
,
1010
0000
0100
0100
0100
0000
1010
0000
0011
0000
0101
0000
1010
0000
0100
0100
,
0100
0000
0110
0000
1100
0000
0011
0000
1010
0000
0001
0001
0001
0000
1010
0000
,
0101
0000
1001
0000
0110
0000
1000
1000
1000
0000
0101
0000
0011
0000
1100
0000
,
1010
0000
0001
0001
0001
0000
1100
0000
0011
0000
1010
0000
0101
0000
0100
0100
,
0100
0000
0110
0000
1010
0000
0101
0000
1010
0000
0202
0303
0011
0000
2200
3300
,
0011
0000
2002
3003
0022
0033
0202
0303
1010
0011
2200
3300
2002
3003
2020
3131
,
1001
0000
2200
3300
0220
0330
0202
0303
1001
0000
0110
0011
2002
3113
2200
3311
,
0110
1010
2002
3113
0022
1133
1010
0101
0220
1331
2020
3131
0010
0010
0010
0010
,
1000
1000
1000
1000
0001
0001
0001
0001
0011
1000
0100
1000
0100
0010
0100
0010
,
1000
0100
0010
0100
1010
0001
0100
0001
0010
0100
0010
0001
0100
0010
0100
0010
,
1000
0100
1000
0001
0100
0001
1000
0100
1000
0001
0100
0001
1010
0100
1000
0001
,
0010
0001
1000
0100
1000
0001
0010
0001
1000
0010
1000
0010
0100
0010
1000
0010
,
1000
0010
0100
0010
1001
0100
0010
0100
1000
0001
0100
0001
0100
0001
1000
0100
,
1000
0001
1000
0100
1000
0001
1000
0100
1000
0010
0100
0010
1001
0010
0100
0010
,
0100
0010
1000
0100
0010
0100
0010
0001
0100
0001
0100
0001
0010
0001
1000
0100
,
1000
0001
0100
0010
0101
0010
1000
0100
0010
0100
0010
0001
1000
0100
0010
0001
,
0100
0010
0100
0010
1000
0100
0010
0100
0010
0001
0100
0001
1100
0010
1000
0100
,
0010
0001
0100
0010
1000
0100
1000
0010
1000
0001
0100
0001
0010
0100
0010
0001
,
0010
0001
0100
0010
1001
0100
1000
0001
0100
0010
1000
0100
0010
0001
0100
0010
,
0100
0010
1000
0001
0100
0001
0010
0001
1000
0100
0010
0001
1010
0100
0010
0001
,
0010
0100
1000
0001
0010
0100
1000
0100
0010
0001
1000
0100
0010
0001
0010
0100
,
1000
0001
0010
0100
1001
0100
0010
0001
0010
0100
1000
0100
0010
0001
0100
0001
,
0100
0001
0010
0100
0001
0010
0100
0001
1000
0100
0010
0001
1100
0010
0001
1000
,
0100
0010
0001
1000
0100
0010
0001
0010
0100
1000
0100
0010
1000
0100
0010
0001
,
1000
0100
0010
0001
1100
0001
0100
0001
0010
0001
0100
0001
0010
0001
0100
0001
,
1000
0100
1000
0010
0001
0010
1000
0010
0001
0010
1000
0010
0101
0010
1000
0010
,
0001
0010
0100
0001
0100
1000
0100
0001
0100
1000
0100
0010
0100
1000
0100
0010
,
1000
0010
0100
0010
1001
0010
0001
0010
0100
0001
0100
0001
0010
0001
1000
0100
,
1000
0001
0100
0010
1000
0100
0010
0001
0010
0100
1000
0100
1010
0001
0100
0001
,
0100
0010
0100
0010
1000
0001
0100
0001
1000
0100
1000
0001
0100
0010
0001
0010
,
0100
0010
1000
0010
0101
0010
1000
0100
0010
0001
0100
0001
0010
0100
1000
0010
,
1000
0001
0100
0001
1000
0100
0010
0001
0100
0001
0010
0001
1010
0100
1000
0010
,
0100
0010
1000
0100
0010
0100
1000
0001
0110
0000
0000
0000
1010
1000
1000
1000
,
0100
0100
0100
0100
0101
0000
0000
0000
0001
0001
0001
0001
0110
0010
0010
0010
,
0100
0100
0100
0100
1001
1000
1000
1000
1000
0000
0000
0000
1010
0010
0010
0010
,
0100
0100
0100
0100
1100
0000
0000
0000
0010
0010
0010
0010
0101
0100
0100
0100
,
1000
1000
1000
1000
0101
0001
0001
0001
0001
0000
0000
0000
1001
1000
1000
1000
,
0100
0100
0100
0100
1100
0000
0000
0000
0100
0100
0100
0100
0011
0010
0010
0010
,
1000
1000
1000
1000
0110
0100
0100
0100
0100
0000
0000
0000
0101
0001
0001
0001
,
0010
0010
0010
0010
1010
0000
0000
0000
0100
0100
0100
0100
0011
0010
0010
0010
,
0001
0000
0000
0001
0000
0000
0001
0000
0000
0001
0000
0000
0110
0000
0000
0010
0000
0000
0010
0000
0000
0010
0000
0000
0010
0000
0000
0000
1000
0000
0000
0000
0010
0000
0000
0000
0101
0000
0000
0000
0010
0000
0000
0000
1000
0000
0000
0000
,
0100
0010
0001
1100
0001
0100
0010
0100
0010
1001
0010
0100
,
0010
1000
0100
1010
0001
0100
0001
0010
0100
1010
0001
0100
,
0010
1000
0010
1100
0001
0010
1000
0010
0001
1100
0010
0100
,
0010
1000
0010
1100
0001
0100
0010
1000
0100
1010
0001
0010
,
0100
0010
0001
1010
0100
1000
0100
0010
0001
1010
0100
1000
,
0100
0010
0100
1001
0100
0010
0001
0010
0100
1010
0001
0010
,
0100
1000
0100
0011
0100
1000
0100
0010
0001
1010
0100
0010
,
0001
0010
0100
1010
0100
0010
0100
1000
0100
1010
0001
0010
,
0001
0100
0001
1100
0010
0100
1000
0100
0010
1001
0100
0010
,
0001
0100
0001
1010
0100
0010
0001
1000
0100
0011
0100
1000
,
0001
0100
0010
0101
0010
1000
0010
0100
0010
1001
0100
0010
,
0001
0100
0001
1010
0100
0010
1000
0010
0001
0110
0001
1000
,
0100
1000
0010
0101
0010
1000
0001
0100
0001
1010
0001
0100
,
0001
1000
0100
1001
0010
0100
0010
1000
0010
1100
0010
0001
,
0010
0100
0010
1001
0100
0010
0100
0010
0001
1100
0001
1000
,
0100
0010
0100
1001
0010
0100
0010
1000
0010
0101
0010
1000
,
0100
0010
0100
1001
0010
0100
0010
1000
0100
1010
0001
0100
,
0010
0100
0001
1010
0100
0010
0001
0100
0001
1010
0001
0100
,
0010
0100
0001
1010
0100
0010
0001
0100
0010
1100
0001
0010
,
0100
1000
0100
0010
0100
1000
0100
0010
0100
1001
0010
0100
,
1000
0100
0010
1001
0100
0010
0100
1000
0010
0101
1000
0100
,
0010
1000
0100
1010
0001
0010
0100
0010
0001
1100
0010
0001
,
0010
0100
0001
1010
0100
0010
0001
0100
0001
1010
0100
0010
,
0100
0000
0000
0000
0010
0000
0000
0000
0100
0000
0000
0000
0011
0000
0000
0000
1000
0000
0000
0000
0010
0000
0000
0000
1000
0000
0000
0101
0000
0000
1000
0000
0000
0011
0000
0000
0100
0000
0000
1001
0000
0000
0010
0000
0000
1100
0000
0000
,
0001
0110
1000
0101
0001
1010
0001
0110
0010
1001
0010
0101
1000
0011
0100
1100
,
0001
0110
0100
1010
0001
0101
1000
0011
0100
1001
0010
1100
0001
0110
0001
1010
,
1000
0101
1000
0011
0100
1001
0010
1100
0001
0110
0001
1010
0010
0101
1000
0011
,
0100
1001
0010
1100
0001
0110
1000
0101
1000
0011
0010
1100
0001
0110
1000
0011
,
1000
0110
0010
1001
0010
1100
0010
1001
0010
0101
1000
0011
1000
0110
0010
1001
,
0100
1010
0001
1100
0010
0101
1000
0011
0100
1001
0010
0101
1000
0011
1000
0101
,
0010
1100
0001
1010
0001
0110
0100
1001
0001
0110
1000
0101
1000
0011
0100
1001
,
0010
1100
0001
0110
0010
1001
0010
1100
0001
1010
0010
0101
1000
0011
0100
1001
,
0010
1100
0010
0101
1000
0011
0100
1001
0100
1010
0001
0110
0001
1010
0010
0101
,
1000
0011
0100
1001
0100
1010
0001
0110
1000
0101
1000
0011
0100
1001
0010
1100
,
0001
0110
0010
1001
0010
0101
1000
0011
0100
1001
0010
1100
0001
1010
0001
1100
,
0010
1001
0010
0101
0010
1001
0100
1010
0001
0101
1000
0011
0010
1100
0010
0101
,
1000
0011
0100
1001
0100
1010
0001
0110
1000
0101
1000
0011
0100
1001
0100
1010
,
0010
0101
0001
1010
0001
0110
1000
0101
1000
0011
0100
1001
0100
1010
0001
0110
,
0001
1010
0010
0101
1000
0011
0100
1001
0010
0100
0010
0000
0000
0000
0000
0000
,
0100
0000
0000
0000
0001
0100
0010
0100
0010
1000
0000
0101
1000
0011
0100
1001
,
0010
1100
0001
0110
0001
1010
1000
0101
1000
0011
0100
1001
0010
1100
0001
1010
,
0001
0110
0001
1010
0010
0101
1000
0011
0100
1001
0010
1100
0001
1010
1000
0101
,
1000
0011
0100
1001
0010
0110
0001
1100
0010
0101
1000
0011
0100
1001
0010
1100
,
1000
0011
1000
0101
1000
0011
0100
1001
0010
1100
0001
1010
0001
0110
0010
1001
,
0010
0101
1000
0011
0100
1001
0010
1100
0001
1010
0001
0110
0100
1001
0010
0101
,
1000
0011
0100
1001
0010
1100
0001
0110
0001
1010
0010
0101
1000
0011
0100
1001
,
0010
1100
0001
0110
0001
1010
0010
0101
1000
0011
0100
1001
0010
0101
1000
0011
,
0100
1001
0010
1100
0001
0110
0001
1010
1000
0101
1000
0011
1000
0101
0001
1010
,
0010
0101
0010
1001
0010
0101
1000
0011
0100
1001
0010
1100
0001
0110
1000
0101
,
0010
1001
0010
1100
0001
0110
1000
0101
1000
0110
0001
1100
0010
0101
0001
1010
,
0001
0110
1000
0101
0010
1001
0010
0101
1000
0011
0100
1001
0010
0110
0001
1010
,
0001
0110
1000
0101
0010
1001
0010
1100
0001
0110
0001
1010
1000
0101
1000
0011
,
0100
1001
0001
0110
1000
0101
1000
0022
0000
0000
0000
0000
0000
0000
0000
0000
,
0000
0000
0000
0000
,
0000
0000
0033
0000
;
